Самые активные релизы за неделю
Нет релизов к показу

:: Детали раздачи
Раздача является мультитрекерной — учтите, количество раздающих не будет совпадать с количеством участников на сайте (скачивание на клиентской стороне зависит от настроек µTorrent клиент программы, настройки -> Включить DHT, Обмен пирами и Поиск лок-х пиров).
Если висит надпись, пиры по нулям - не бойтесь, возможность скачать повторно раздачу - есть. Попробуйте, в случае отказа - прокоментируйте или нажмите на "Позвать скачавших".

Виктория Дайнеко - Сотри Его Из Memory (DVDRip) [2011]

Скачать Скачать .torrent файл (основная ссылка для скачивания файла)
Смотреть / Слушать онлайн просмотр (ссылка для просмотра файла через плагин 'Torrent Stream')
Magnet-ссылка (альтернативная ссылка для скачивания файла)
Теги / Метки [Не выбрано]
Описание
Виктория Дайнеко - Сотри Его Из Memory (DVDRip) [2011]
Артист : Виктория Дайнеко
Название : Сотри Его Из Memory (DVDRip)
Год выхода : 2011
Язык : Русский

О видео клипе : http://zamolxismd.org/m/music.itop.net/Pictures/Articles/06.02.2011/5136/19204564_ptpro.jpg


Виктория Дайнеко - Сотри Его Из Memory

Виктория Петровна Дайнеко (12 мая 1987; Кировский, Талды-Курганская область, Казахская ССР, СССР) — российская певица и актриса, выпускница и победительница «Фабрики звёзд — 5», участница проекта Первого канала «Ледниковый период 2007» в паре с олимпийским чемпионом 2002 года Алексеем Ягудиным. Весной 2009 принимала участие в проекте Первого канала «Две Звезды 2009», где в паре актёром Александром Олешко заняла 3 место.

Выпускница российского телешоу "Фабрика звезд" Виктория Дайнеко обзавелась новым треком. Певица презентовала лирическую композицию "Сотри его из memory", автором которой выступил известный продюсер и певец Серега.

"Когда я услышала демо этой песни, то не смогла сдержать слез. Она написана как будто бы обо мне. За несколько дней до того, как я ее услышала, я рассталась с любимым человеком.Это произошло перед Новым годом. Чтобы избавиться от грустных мыслей, я действительно стерла из телефонной книжки один номер и отправилась с лучшей подругой в путешествие по Европе. В поездке удалось выбросить из памяти все плохое, накопившееся за прошлый год. Нужно уметь "стирать" изжившие себя отношения и начинать жизнь с чистого листа", -объяснила Виктория.

Известно, что работа над записью песни проходила в Киеве. "Мы работали в студии у Сереги. Честно скажу, я немного его побаивалась, потому что не была до этого с ним знакома, и по первому впечатлению он казался очень строгим. Но это было ошибочное мнение! С Серегой невероятно комфортно и легко было работать, его реакция на записанные треки меня так радовала, что хотелось петь лучше и лучше! Пела я для самой себя и успокаивала себя словами этой же песни, с трудом боролась со слезами, но в итоге решила петь просто от души. В итоге песню мы записали достаточно быстро и даже не использовали все отведенные на запись часы в студии. Для меня эта песня получилась очень откровенной, и я очень надеюсь на то, что она не оставит слушателей равнодушными", - добавила певица.

Съемки клипа "Сотри его из memory" также пройдут в Киеве. Режиссером видео станет Владимир Якименко. А главная мужская роль достанется новому солисту группы "Корни" Диме Пакуличеву.


Video


Текст и Перевд песни "Сотри Его Из Memory"


MediaInfoFormat : AVI

Format/Info: Audio Video Interleave

File size: 97.6 MiB

Duration : 3mn 27s

Overall bit rate : 3 946 Kbps

Writing application: Lavf51.12.1

Video

ID : 0

Format : AVC

Format/Info: Advanced Video Codec

Format profile : [email protected]

Format settings, CABAC : No

Format settings, ReFrames: 1 frame

Codec ID : H264

Duration : 12s 0ms

Bit rate : 3 615 Kbps

Width: 640 pixels

Height : 480 pixels

Display aspect ratio : 4:3

Frame rate : 25.000 fps

Color space: YUV

Chroma subsampling : 4:2:0

Bit depth: 8 bits

Scan type: Progressive

Bits/(Pixel*Frame) : 0.471

Stream size: 89.4 MiB (92%)

Audio

ID : 1

Format : MPEG Audio

Format version : Version 1

Format profile : Layer 3

Mode : Joint stereo

Codec ID : 55

Codec ID/Hint: MP3

Duration : 3mn 27s

Bit rate mode: Constant

Bit rate : 320 Kbps

Channel(s) : 2 channels

Sampling rate: 44.1 KHz

Compression mode : Lossy

Stream size: 7.92 MiB (8%)

Alignment: Aligned on interleaves

Interleave, duration : 26 ms (0.65 video frame)

Interleave, preload duration : 26 ms

Writing library: LAME3.97Apas aici pentru a nchide spoilerulНажмите сюда чтобы закрыть спойлер

Screenshot'uri



Релиз Команды: http://zamolxismd.org/m/s7.directupload.net/images/110420/lbztn8vv.gif




http://zamolxismd.org/m/s7.directupload.net/images/110420/liuyd8wx.png






© sashooa 2011
Видео : AVC, 640x480 (4/3), 25.000 fps, 3 615 Kbps (0.471 bit/pixel)
Звук : MP3, 44.1 KHz, 2 ch, 320 Kbps, CBR
Связанные раздачи
Загрузка / Обновление
Категория Клипы / Ролики / Приколы RSS лента
Добавлен (7 лет, 7 месяцев назад)
Просмотров 155 раз (a)
Взят 2 раз (a)
Файлы 1, 97.64 MB (102 383 516 байт)
Оценка
IMDB: 7.4, 7,703 голоса (ов)
Раздал ViKa  (Искать торренты)
Участники
Скачивают (качают): 0 (1), Завершено: 0 (0)
Просматривают

« VA - New Life on TMD [Dance Club] Summer Edition Vol.19 [2011 / MP3 / 320] [Club] -†- ¿? -†- Brainstorm / Prata Vetra - Полная дискография (17 альбомов, 14 синглов, 7 бутлегов) [1993-2010 / MP3 / 320] [Rock] »

:: Список Комментариев
Нет комментариев.

 Нет комментариев

Счетчики
Яндекс.Метрика


Поделитесь в социальных сетях


Торрент клиент

Торрент клиент для macOS

Быстрый Поиск





Спасибо Вам
Мы благодарны этим людям в поддержке сайта:
Нет данных для показа
Попади и ты в этот блок, поставь оценку 5 и получи 300 MB к отдаче:
Войти на сайт сейчас.

Правообладателям
По всем вопросам сотрудничества, удаления авторских файлов "пачкой", просьба отписаться по адреcу:
[email protected]

Наши группы в VK, OK